Домашний медиа-сервер (UPnP, DLNA, HTTP) Домашний медиа-сервер (UPnP, DLNA, HTTP) Домашний медиа-сервер (UPnP, DLNA, HTTP)
Главная Решения пользователей программы "Домашний медиа-сервер (UPnP, DLNA, HTTP)"
 
Текущее время: Сб дек 20, 2014 6:35 am

Часовой пояс: UTC + 3 часа




Начать новую тему Ответить на тему  [ Сообщений: 276 ]  На страницу Пред.  1 ... 21, 22, 23, 24, 25, 26, 27, 28  След.
Автор Сообщение
СообщениеДобавлено: Сб окт 09, 2010 11:07 pm 
Не в сети

Зарегистрирован: Сб июл 17, 2010 5:10 pm
Сообщения: 1
Здравствуйте! Помогите пожалуйста настроить программу HMS 1.15 под такое вот устройство http://www.seagate.com/www/ru-ru/produc ... ater_plus/, имеется плейлист IPTV от Билайна, который отлично идет через VLC 1.0.3 на компьютере, но никак не кажет на телевизоре посредством вышеуказанного девайса, пробовал разные профили транскодирования, но результат ноль. В настройках программы этого девайса нет, что выбрать вместо него сразу после установки я не знаю, может из-за этого и не получается, а вообще программа отличная - весь контент с компа через нее смотрю на телевизоре, кроме конечно IPTV Билайна, помогите настроить, заранее спасибо.


Вернуться к началу
 Профиль  
 
СообщениеДобавлено: Вт окт 19, 2010 9:15 pm 
Уважаемый разработчик,можно ли пошагово описать как настроить HMS для работы с IPTV?


Вернуться к началу
  
 
СообщениеДобавлено: Ср окт 20, 2010 7:29 pm 
Не в сети

Зарегистрирован: Пн окт 18, 2010 12:36 pm
Сообщения: 17
а как можно ускорить открытие каналов, а то приходиться ждать ровно 15 сек, перед тем как он начинает показывать?


Вернуться к началу
 Профиль  
 
СообщениеДобавлено: Вт окт 26, 2010 7:45 pm 
Добрый вечер, помогите, пожалуйста, разобраться с переключением аудио-дорожек.
Проделывал, как на 13 странице:
Цитата:
1) В HMS в раздел "Фильмы" в папке "Интернет телевидение" выбирал канал с 2 дорожками, в меню "редактирование информации" -> "прочитать свойства файлов" - выбирал русскую дорожку, но все равно воспроизводилась англиская;

Цитата:
2) В HMS в раздел "Фильмы" в папке "Интернет телевидение" выбирал канал с 2 дорожками, в меню "редактирование информации" -> ""специальные настройки использования медиа-ресурса" -> галку "использовать указанные..." вводил: -i "<INPUT FILE>" -vcodec mpeg2video -acodec copy -b 8000000 -copyts -pix_fmt yuv420p -f dvd -map 0:0 -map 0:2, но канал попросту не запускался.

Вот что выдало тестовое транскодирование:
Код:
"C:\Program Files (x86)\Home Media Server\hmsmpeg.exe" -i "http://10.0.16.237:80
12" -vcodec mpeg2video -acodec copy -b 8000000 -copyts -pix_fmt yuv420p -f dvd -
map 0:0 -map 0:2 "C:\Users\Kostyan\AppData\Local\Home Media Server\HMS\Temp\Test
_8ff46815ff138f54b796baf902df132d.mpg" -v -1 -loglevel quiet

FFmpeg version SVN-r22696, Copyright (c) 2000-2010 the FFmpeg developers
  built on May  2 2010 17:40:51 with gcc 4.4.0
  libavutil     50.13. 0 / 50.13. 0
  libavcodec    52.61. 0 / 52.61. 0
  libavformat   52.57. 1 / 52.57. 1
  libavdevice   52. 2. 0 / 52. 2. 0
  libswscale     0.10. 0 /  0.10. 0
  libpostproc   51. 2. 0 / 51. 2. 0
[mpeg2video @ 002bd900]mpeg_decode_postinit() failure
    Last message repeated 9 times
[mpegts @ 002b8e00]max_analyze_duration reached
[mpegts @ 002b8e00]Estimating duration from bitrate, this may be inaccurate

Seems stream 2 codec frame rate differs from container frame rate: 50.00 (50/1)
-> 25.00 (50/2)
Input #0, mpegts, from 'http://10.0.16.237:8012':
  Duration: N/A, start: 1639.335078, bitrate: 5192 kb/s
  Program 1
    Stream #0.0[0x44](eng): Audio: mp2, 48000 Hz, 1 channels, s16, 96 kb/s
    Stream #0.1[0x45](rus): Audio: mp2, 48000 Hz, 1 channels, s16, 96 kb/s
    Stream #0.2[0x46]: Video: mpeg2video, yuv420p, 544x576 [PAR 24:17 DAR 4:3],
5000 kb/s, 26.72 fps, 25 tbr, 90k tbn, 50 tbc
Output #0, dvd, to 'C:\Users\Kostyan\AppData\Local\Home Media Server\HMS\Temp\Te
st_8ff46815ff138f54b796baf902df132d.mpg':
: Video: mpeg2video, yuv420p, 544x576 [PAR 24:17 DAR 4:3], q=2-31, 8000 kb/s, 90
k tbn, 25 tbc
: Audio: 0x0000, 48000 Hz, 1 channels, 64 kb/s
Codec type mismatch for mapping #0.0 -> #0.0


Для продолжения нажмите любую клавишу . .
.
Телевизор подключен напрямую сетевым кабелем. Версия vlc 1.1.4.


Вернуться к началу
  
 
СообщениеДобавлено: Ср ноя 03, 2010 5:44 pm 
Подскажите, а как каналы переключаються на телике, если вдруг на думаю смотреть iptv через hms


Вернуться к началу
  
 
СообщениеДобавлено: Вс ноя 07, 2010 7:20 pm 
Попробовал подружить ДМС и Seagate FreeAgent Theatre+ (FAT+). Проблема в том, что фильмы идут без проблем. что же касается IPTV, то - никак. Файл транскодируется, но FAT+ его не цепляет. При нажатии на канал, он отправляет команду на LVC? файл создается на компьютере и...всё. :( На FAT+ пишет Loading... и виснет намертво. При отмене транскодирования на компьютере, ДМС снова начинает кодировать файл, тогда, ИНОГДА, FAT начинает воспроизведение. В чём могут быть траблы? Подскажет может кто?


Вернуться к началу
  
 
СообщениеДобавлено: Чт ноя 18, 2010 8:08 pm 
Уважаемый разработчик!Проблема подключения к IP-TV,которое вещается при отключённом интернете IP-динамич.Компьютер подключен с TV ко второй сетевой IP-стат,список каналов на TV-есть со знаками вопроса.При включении VLC на компе-тест есть,но при включении второго соединеия(на TV)LVC-встаёт,теста-нет.Помогите пожалуйста!


Вернуться к началу
  
 
СообщениеДобавлено: Пт ноя 19, 2010 10:11 am 
Добрый день!

У кого нибудь получалось настроить АВК?

Ссылки типа :
http://avk-video-30.local.lan:7780/udp/234.5.2.62:20000
или
udp://@234.5.2.62:20000

При добавлении первой ссылки не проигрывается видеопоток, со звуком все нормально.
При пробросе multicast по второй ссылке показывает, но так артифактировано, что к просмотру никак не годится.

Посоветуйте пожалуйста что можно сделать?

Спасибо!


Вернуться к началу
  
 
СообщениеДобавлено: Пт ноя 19, 2010 11:58 am 
LergaSSy писал(а):
Добрый день!

У кого нибудь получалось настроить АВК?

Ссылки типа :
http://avk-video-30.local.lan:7780/udp/234.5.2.62:20000
или
udp://@234.5.2.62:20000

При добавлении первой ссылки не проигрывается видеопоток, со звуком все нормально.
При пробросе multicast по второй ссылке показывает, но так артифактировано, что к просмотру никак не годится.

Посоветуйте пожалуйста что можно сделать?

Спасибо!


Все получилось. Неактуально, спасибо!


Вернуться к началу
  
 
СообщениеДобавлено: Вс ноя 21, 2010 2:48 pm 
Помогите подключить ip-tv со второй сетевой без роутеров,мои сисадмины не могут( или не хотят)


Вернуться к началу
  
 
Показать сообщения за:  Поле сортировки  
Начать новую тему Ответить на тему  [ Сообщений: 276 ]  На страницу Пред.  1 ... 21, 22, 23, 24, 25, 26, 27, 28  След.

Часовой пояс: UTC + 3 часа


Кто сейчас на конференции

Сейчас этот форум просматривают: Bing [Bot] и гости: 5


Вы не можете начинать темы
Вы не можете отвечать на сообщения
Вы не можете редактировать свои сообщения
Вы не можете удалять свои сообщения
Вы не можете добавлять вложения

Найти:
Перейти:  
Powered by phpBB® Forum Software © phpBB Group
Русская поддержка phpBB